Query failed: unknown local index 'redowntitle' in search request. Death - Fate (The Best Of) (1992) ( Rapidgator - Ryushare - Turbobit - Uploaded ) download full version
Home
 

Categories

Death - Fate (The Best Of) (1992) ( Rapidgator - Ryushare - Turbobit - Uploaded ) Download Full & Free

  1 November 2013 / 0 | Category: Music | Author: zhvyrka


Death - Fate (The Best Of) (1992)

Death - Fate (The Best Of) (1992)
Filehost Mirrors: Uploaded.net, Ryushare.com, Rapidgator.net, Turbobit.net

Year & Label: 1992, Under One Flag | CD#: CDMFLAG 71
Flac (image) | MP3 CBR 320 Kbps | Artwork (PNG, 300 dpi) | File-hosts: Uploaded.net
Death Metal | FLAC: 400 MB | Artwork: 40 MB | MP3: 120 MB | 5% WinRAR Recovery

EAC Secure-rip with LOG+CUE+COVERS | Source: eMule

"On Deaths previous releases they have tons of great songs of the four albums...and a good many that stand out. This here compilation has managed to capture all the songs that stand out among the barrage of allready good Death songs up to this point. They included the best of Screaming Bloody Gore: Zombie Ritual, Mutilation. The best of Leprosy: Open Casket, Pull the Plug. The best of Human: Suicide Machine, Together As One. They messed up on Spirtual Healing though...the band didnt put on Living Monstrosity, the most powerful song of the band from that album. Aside from that they captured everything up to this point well without polluting the album with 15 plus tracks.

This album is easy to find new and used, for cheap...its a great record you can get for around 5 bucks to see if you will like Deaths earlier stuff. Other than this though it serves no purpose. Its put together well...and aside from a missing track or two that should be on here its done well. This though serves no purpose to Death fans who, or will, own deaths albums...for that I take off points.

www.metal-archives.com "
Musicians:

Guitars, Vocals : Chuck Schuldiner
Drums : Bill Andrews
Bass : Terry Butler
Guitars : James Murphy

Compilation by Alan Becker
Track selection and liner notes by Kevin Sharp
Design by Brian Freeman & David Bett

Track List:

01. Zombie Ritual [4:34]
02. Together As One [4:09]
03. Open Casket [4:57]
04. Spiritual Healing [7:45]
05. Mutilation [3:28]
06. Suicide Machine [4:22]
07. Altering The Future [5:36]
08. Baptized In Blood [4:30]
09. Left To Die [4:38]
10. Pull The Plug [4:27]

Exact Audio Copy V1.0 beta 3 from 29. August 2011

EAC extraction logfile from 2. October 2013, 23:26

Death / Fate

Used drive : HL-DT-STDVDRAM GH24NS90 Adapter: 1 ID: 1

Read mode : Secure
Utilize accurate stream : Yes
Defeat audio cache : Yes
Make use of C2 pointers : No

Read offset correction : 6
Overread into Lead-In and Lead-Out : No
Fill up missing offset samples with silence : Yes
Delete leading and trailing silent blocks : No
Null samples used in CRC calculations : Yes
Used interface : Native Win32 interface for Win NT & 2000

Used output format : Internal WAV Routines
Sample format : 44.100 Hz; 16 Bit; Stereo

TOC of the extracted CD

Track | Start | Length | Start sector | End sector
---------------------------------------------------------
1 | 0:00.32 | 4:33.40 | 32 | 20546
2 | 4:33.72 | 4:08.48 | 20547 | 39194
3 | 8:42.45 | 4:56.45 | 39195 | 61439
4 | 13:39.15 | 7:45.30 | 61440 | 96344
5 | 21:24.45 | 3:28.27 | 96345 | 111971
6 | 24:52.72 | 4:22.23 | 111972 | 131644
7 | 29:15.20 | 5:36.25 | 131645 | 156869
8 | 34:51.45 | 4:30.07 | 156870 | 177126
9 | 39:21.52 | 4:38.08 | 177127 | 197984
10 | 43:59.60 | 4:27.10 | 197985 | 218019

Range status and errors

Selected range

Filename C:\Music CD\Death - Fate.wav

Peak level 97.9 %
Extraction speed 2.4 X
Range quality 100.0 %
Test CRC 6C992026
Copy CRC 6C992026
Copy OK

No errors occurred


AccurateRip summary

Track 1 accurately ripped (confidence 4) [0AA13D57] (AR v2)
Track 2 accurately ripped (confidence 4) [B50A2520] (AR v2)
Track 3 accurately ripped (confidence 4) [9B6EFAED] (AR v2)
Track 4 accurately ripped (confidence 4) [354DCE7D] (AR v2)
Track 5 accurately ripped (confidence 3) [E27CBB90] (AR v2)
Track 6 accurately ripped (confidence 4) [77C8604E] (AR v2)
Track 7 accurately ripped (confidence 3) [1ADD6BC1] (AR v2)
Track 8 accurately ripped (confidence 3) [8652D2DF] (AR v2)
Track 9 accurately ripped (confidence 3) [E0909202] (AR v2)
Track 10 accurately ripped (confidence 4) [F65A51F7] (AR v2)

All tracks accurately ripped

End of status report

==== Log checksum 44834BA021894E7F66B3922CA71FFA287DD902F50192895F0AA46059C4FF89F1 ====

Not my rip, not my scan-job. Thx very much to the original uploader edenika [NL]!
5% WinRar Recovery Record for all files.
Try before you might buy. Support the artists you like and buy their stuff whenever you can afford it.
FLAC, image + atrwork or mp3 at Uploaded.net:
| |







Death - Fate (The Best Of) (1992) ( Rapidgator - Ryushare - Turbobit - Uploaded ) [Fast Download]




Death - Fate (The Best Of) (1992) ( Rapidgator - Ryushare - Turbobit - Uploaded ) [Usenet]



Download‌ from‌ 70+‌ Filehosters‌ with‌ Zevera
Death - Fate (The Best Of) (1992) ( Rapidgator - Ryushare - Turbobit - Uploaded ) download from rapidshare, rapidgator, and Death - Fate (The Best Of) (1992) ( Rapidgator - Ryushare - Turbobit - Uploaded ) Death - Fate (The Best Of) (1992) ( Rapidgator - Ryushare - Turbobit - Uploaded ) torrent download, Death - Fate (The Best Of) (1992) ( Rapidgator - Ryushare - Turbobit - Uploaded ) cracks and keygen, serials keys. Death - Fate (The Best Of) (1992) ( Rapidgator - Ryushare - Turbobit - Uploaded ) password for rar files. full free download

Show your love to this post by sharing on to your buddies.






Show some appreciation to the person who worked hard to upload this exclusive post for you. Like this post and leave comments on Death - Fate (The Best Of) (1992) ( Rapidgator - Ryushare - Turbobit - Uploaded ). Or simply say thanks to zhvyrka for uploading Death - Fate (The Best Of) (1992) ( Rapidgator - Ryushare - Turbobit - Uploaded ).
Views : |Provider: zhvyrka | Comments: [0]

Information

Members of Guest cannot leave comments.

Search on ReDown

Login

Login:   

Password:

  

   
 

Sign Up !   |    Forgot Password?

Latest Downloads

eXTReMe Tracker

Sponsored List



Sign Up !       |       RSS       |       Privacy Policy       |       DMCA Policy       |       Contact Us



Download free application, mp3 tracks, hd movies, brrip, 720p, documentaries, free hd wallpapers, links of file sharing sites, nulled scripts. Browse posts in categories and find your favourite games, videos, or any softwares for pc, and mac, and other os.

Copyright © 2009-2010 ReDown (redown.se). All rights reserved.